osu file format v14

[General]
AudioFilename: ed.mp3
AudioLeadIn: 1500
PreviewTime: -1
Countdown: 1
SampleSet: Normal
StackLeniency: 0.7
Mode: 3
LetterboxInBreaks: 1
WidescreenStoryboard: 1

[Editor]
DistanceSpacing: 1
BeatDivisor: 4
GridSize: 4
TimelineZoom: 1

[Metadata]
Title:Tasogare no Starlight
TitleUnicode:Tasogare no Starlight
Artist:Nanjoh Yoshino
ArtistUnicode:南條愛乃
Creator:Michiru1004
Version:Hard
Source:グリザイアの楽園
Tags:grisaia no rakuen
BeatmapID:711759
BeatmapSetID:313885

[Difficulty]
HPDrainRate:5
CircleSize:4
OverallDifficulty:5
ApproachRate:5
SliderMultiplier:1.4
SliderTickRate:1

[Events]
//Background and Video events
Video,0,"ed.avi",0,0
0,0,"asf.jpg",0,0
//Break Periods
//Storyboard Layer 0 (Background)
//Storyboard Layer 1 (Fail)
//Storyboard Layer 2 (Pass)
//Storyboard Layer 3 (Foreground)
//Storyboard Sound Samples

[TimingPoints]
0,300,4,1,1,100,1,0

[Colours]
Combo1 : 255,0,0
Combo2 : 128,255,255
Combo3 : 128,255,128

[HitObjects]
448,192,1275,128,0,2775:0:0:0:0:
64,192,1275,128,0,2775:0:0:0:0:
64,192,3675,5,0,0:0:0:0:
192,192,3675,1,0,0:0:0:0:
320,192,3675,1,0,0:0:0:0:
448,192,3675,1,0,0:0:0:0:
192,192,4500,1,0,0:0:0:0:
320,192,4500,1,0,0:0:0:0:
192,192,5250,128,0,6000:0:0:0:0:
448,192,5250,128,0,6000:0:0:0:0:
64,192,5250,1,0,0:0:0:0:
64,192,6000,1,0,0:0:0:0:
448,192,6450,1,0,0:0:0:0:
64,192,6450,1,0,0:0:0:0:
192,192,6450,1,0,0:0:0:0:
64,192,6900,1,0,0:0:0:0:
448,192,6900,1,0,0:0:0:0:
320,192,6900,1,0,0:0:0:0:
64,192,7500,1,0,0:0:0:0:
448,192,7500,1,0,0:0:0:0:
448,192,7875,1,0,0:0:0:0:
320,192,7875,1,0,0:0:0:0:
192,192,8325,1,0,0:0:0:0:
448,192,8325,1,0,0:0:0:0:
192,192,8500,1,0,0:0:0:0:
448,192,8500,1,0,0:0:0:0:
64,192,8850,1,0,0:0:0:0:
192,192,8925,1,0,0:0:0:0:
448,192,9375,1,0,0:0:0:0:
192,192,9375,1,0,0:0:0:0:
64,192,9675,1,0,0:0:0:0:
448,192,9675,1,0,0:0:0:0:
448,192,10000,1,0,0:0:0:0:
64,192,10000,1,0,0:0:0:0:
320,192,10350,1,0,0:0:0:0:
192,192,10350,1,0,0:0:0:0:
192,192,10950,1,0,0:0:0:0:
448,192,10950,1,0,0:0:0:0:
448,192,11400,1,0,0:0:0:0:
64,192,11400,1,0,0:0:0:0:
320,192,11925,1,0,0:0:0:0:
64,192,11925,1,0,0:0:0:0:
64,192,12375,1,0,0:0:0:0:
192,192,12375,1,0,0:0:0:0:
320,192,12750,1,0,0:0:0:0:
448,192,12750,1,0,0:0:0:0:
448,192,13125,1,0,0:0:0:0:
64,192,13125,1,0,0:0:0:0:
64,192,13750,1,0,0:0:0:0:
448,192,13750,1,0,0:0:0:0:
64,192,14625,1,0,0:0:0:0:
320,192,14625,1,0,0:0:0:0:
192,192,15375,1,0,0:0:0:0:
320,192,15375,128,0,15750:0:0:0:0:
192,192,15750,1,0,0:0:0:0:
64,192,16375,1,0,0:0:0:0:
448,192,16375,1,0,0:0:0:0:
64,192,17375,128,0,18500:0:0:0:0:
448,192,17850,1,0,0:0:0:0:
448,192,18500,1,0,0:0:0:0:
320,192,19125,1,0,0:0:0:0:
64,192,19125,1,0,0:0:0:0:
448,192,19500,1,0,0:0:0:0:
320,192,19500,1,0,0:0:0:0:
64,192,19800,1,0,0:0:0:0:
448,192,19800,1,0,0:0:0:0:
448,192,20125,1,0,0:0:0:0:
64,192,20125,1,0,0:0:0:0:
192,192,20400,1,0,0:0:0:0:
448,192,20400,1,0,0:0:0:0:
64,192,20775,128,0,21525:0:0:0:0:
320,192,20775,1,0,0:0:0:0:
448,192,20775,1,0,0:0:0:0:
448,192,21525,128,0,22500:0:0:0:0:
192,192,21525,1,0,0:0:0:0:
64,192,22500,128,0,24000:0:0:0:0:
320,192,22500,1,0,0:0:0:0:
448,192,23250,1,0,0:0:0:0:
320,192,23250,1,0,0:0:0:0:
448,192,24000,1,0,0:0:0:0:
192,192,24000,1,0,0:0:0:0:
192,192,24500,1,0,0:0:0:0:
320,192,24500,1,0,0:0:0:0:
448,192,24875,1,0,0:0:0:0:
320,192,25375,1,0,0:0:0:0:
448,192,25375,1,0,0:0:0:0:
448,192,25725,1,0,0:0:0:0:
64,192,25725,128,0,27075:0:0:0:0:
192,192,26400,1,0,0:0:0:0:
320,192,26400,1,0,0:0:0:0:
448,192,27075,1,0,0:0:0:0:
192,192,27375,128,0,28725:0:0:0:0:
448,192,27375,128,0,28725:0:0:0:0:
320,192,28125,128,0,28725:0:0:0:0:
64,192,28125,128,0,28725:0:0:0:0:
64,192,29025,128,0,30150:0:0:0:0:
448,192,29025,1,0,0:0:0:0:
320,192,29025,1,0,0:0:0:0:
192,192,30150,1,0,0:0:0:0:
448,192,30150,1,0,0:0:0:0:
64,192,30750,1,0,0:0:0:0:
448,192,30750,1,0,0:0:0:0:
192,192,30750,1,0,0:0:0:0:
192,192,31125,1,0,0:0:0:0:
320,192,31125,1,0,0:0:0:0:
448,192,31125,1,0,0:0:0:0:
192,192,31875,128,0,32875:0:0:0:0:
320,192,31875,128,0,32875:0:0:0:0:
320,192,33375,128,0,34200:0:0:0:0:
64,192,33375,128,0,34200:0:0:0:0:
192,192,33375,1,0,0:0:0:0:
448,192,33375,1,0,0:0:0:0:
448,192,34200,1,0,0:0:0:0:
64,192,34575,1,0,0:0:0:0:
448,192,34575,128,0,36750:0:0:0:0:
320,192,35250,128,0,36750:0:0:0:0:
64,192,35250,1,0,0:0:0:0:
64,192,36750,1,0,0:0:0:0:
192,192,36750,1,0,0:0:0:0:
64,192,37050,1,0,0:0:0:0:
448,192,37050,1,0,0:0:0:0:
64,192,37375,1,0,0:0:0:0:
192,192,37375,1,0,0:0:0:0:
64,192,37725,1,0,0:0:0:0:
448,192,37725,1,0,0:0:0:0:
320,192,38125,1,0,0:0:0:0:
448,192,38125,1,0,0:0:0:0:
64,192,38550,1,0,0:0:0:0:
320,192,38550,1,0,0:0:0:0:
192,192,39000,1,0,0:0:0:0:
320,192,39000,1,0,0:0:0:0:
448,192,39300,128,0,40125:0:0:0:0:
320,192,39300,1,0,0:0:0:0:
64,192,39300,128,0,40125:0:0:0:0:
192,192,40125,1,0,0:0:0:0:
64,192,40375,1,0,0:0:0:0:
192,192,40375,1,0,0:0:0:0:
320,192,40725,1,0,0:0:0:0:
448,192,40725,128,0,41475:0:0:0:0:
64,192,41475,1,0,0:0:0:0:
192,192,41475,1,0,0:0:0:0:
64,192,41750,1,0,0:0:0:0:
192,192,41750,1,0,0:0:0:0:
320,192,42250,1,0,0:0:0:0:
448,192,42250,1,0,0:0:0:0:
64,192,42975,1,0,0:0:0:0:
448,192,42975,1,0,0:0:0:0:
192,192,42975,1,0,0:0:0:0:
192,192,43575,1,0,0:0:0:0:
320,192,43575,1,0,0:0:0:0:
448,192,43575,1,0,0:0:0:0:
448,192,44100,1,0,0:0:0:0:
64,192,44100,1,0,0:0:0:0:
320,192,44100,1,0,0:0:0:0:
64,192,44850,128,0,46125:0:0:0:0:
192,192,44850,1,0,0:0:0:0:
448,192,44850,1,0,0:0:0:0:
192,192,45450,1,0,0:0:0:0:
320,192,45450,1,0,0:0:0:0:
192,192,46125,128,0,46725:0:0:0:0:
448,192,46125,1,0,0:0:0:0:
320,192,46725,1,0,0:0:0:0:
64,192,47175,1,0,0:0:0:0:
448,192,47175,1,0,0:0:0:0:
192,192,47175,1,0,0:0:0:0:
192,192,47550,1,0,0:0:0:0:
320,192,47550,1,0,0:0:0:0:
448,192,47550,1,0,0:0:0:0:
64,192,47925,1,0,0:0:0:0:
192,192,47925,1,0,0:0:0:0:
320,192,47925,1,0,0:0:0:0:
64,192,48300,1,0,0:0:0:0:
192,192,48300,1,0,0:0:0:0:
320,192,48675,1,0,0:0:0:0:
448,192,48675,1,0,0:0:0:0:
320,192,49050,1,0,0:0:0:0:
64,192,49050,1,0,0:0:0:0:
192,192,49350,1,0,0:0:0:0:
448,192,49350,1,0,0:0:0:0:
64,192,49650,1,0,0:0:0:0:
448,192,49650,1,0,0:0:0:0:
192,192,49875,1,0,0:0:0:0:
320,192,49875,1,0,0:0:0:0:
64,192,50250,128,0,51500:0:0:0:0:
192,192,50250,1,0,0:0:0:0:
448,192,51150,1,0,0:0:0:0:
320,192,51150,1,0,0:0:0:0:
448,192,51500,1,0,0:0:0:0:
64,192,51975,128,0,52500:0:0:0:0:
192,192,51975,1,0,0:0:0:0:
320,192,52250,1,0,0:0:0:0:
448,192,52500,1,0,0:0:0:0:
448,192,52725,1,0,0:0:0:0:
320,192,53325,1,0,0:0:0:0:
448,192,53325,128,0,54225:0:0:0:0:
64,192,54225,128,0,55650:0:0:0:0:
192,192,54225,1,0,0:0:0:0:
192,192,55200,1,0,0:0:0:0:
448,192,55200,1,0,0:0:0:0:
192,192,55650,1,0,0:0:0:0:
448,192,55650,1,0,0:0:0:0:
64,192,56125,1,0,0:0:0:0:
192,192,56125,1,0,0:0:0:0:
448,192,56500,1,0,0:0:0:0:
192,192,57225,1,0,0:0:0:0:
448,192,57225,1,0,0:0:0:0:
320,192,57225,128,0,59625:0:0:0:0:
64,192,57225,128,0,59625:0:0:0:0:
448,192,59625,1,0,0:0:0:0:
192,192,59625,1,0,0:0:0:0:
64,192,60000,1,0,0:0:0:0:
320,192,60000,1,0,0:0:0:0:
448,192,60225,1,0,0:0:0:0:
192,192,60225,1,0,0:0:0:0:
320,192,60525,1,0,0:0:0:0:
64,192,60525,1,0,0:0:0:0:
64,192,60900,1,0,0:0:0:0:
448,192,60900,128,0,62250:0:0:0:0:
192,192,60900,128,0,62250:0:0:0:0:
320,192,60900,1,0,0:0:0:0:
64,192,62250,1,0,0:0:0:0:
320,192,62250,1,0,0:0:0:0:
64,192,62625,128,0,63975:0:0:0:0:
448,192,62625,128,0,63975:0:0:0:0:
320,192,62625,1,0,0:0:0:0:
192,192,63975,1,0,0:0:0:0:
192,192,64350,1,0,0:0:0:0:
320,192,64350,1,0,0:0:0:0:
448,192,64725,1,0,0:0:0:0:
64,192,64725,1,0,0:0:0:0:
448,192,65400,1,0,0:0:0:0:
64,192,65400,128,0,66600:0:0:0:0:
320,192,65625,1,0,0:0:0:0:
192,192,65775,128,0,66600:0:0:0:0:
448,192,66600,1,0,0:0:0:0:
64,192,66900,1,0,0:0:0:0:
448,192,66900,1,0,0:0:0:0:
320,192,67200,1,0,0:0:0:0:
448,192,67200,1,0,0:0:0:0:
64,192,67200,1,0,0:0:0:0:
192,192,67575,1,0,0:0:0:0:
448,192,67575,1,0,0:0:0:0:
64,192,67875,1,0,0:0:0:0:
448,192,67875,1,0,0:0:0:0:
64,192,68250,1,0,0:0:0:0:
448,192,68250,1,0,0:0:0:0:
64,192,68325,1,0,0:0:0:0:
448,192,68325,1,0,0:0:0:0:
64,192,68625,1,0,0:0:0:0:
448,192,68625,1,0,0:0:0:0:
192,192,69075,128,0,69525:0:0:0:0:
448,192,69075,1,0,0:0:0:0:
448,192,69525,1,0,0:0:0:0:
320,192,70000,1,0,0:0:0:0:
448,192,70000,1,0,0:0:0:0:
64,192,70250,1,0,0:0:0:0:
192,192,70250,1,0,0:0:0:0:
448,192,70725,1,0,0:0:0:0:
64,192,70725,128,0,72375:0:0:0:0:
192,192,71025,128,0,72375:0:0:0:0:
320,192,71325,128,0,72375:0:0:0:0:
448,192,72375,1,0,0:0:0:0:
192,192,72600,1,0,0:0:0:0:
448,192,72600,1,0,0:0:0:0:
192,192,72900,1,0,0:0:0:0:
320,192,72900,1,0,0:0:0:0:
64,192,73350,1,0,0:0:0:0:
448,192,73350,1,0,0:0:0:0:
448,192,73725,1,0,0:0:0:0:
320,192,73725,1,0,0:0:0:0:
64,192,74250,1,0,0:0:0:0:
320,192,74250,1,0,0:0:0:0:
320,192,74850,1,0,0:0:0:0:
448,192,74850,128,0,76350:0:0:0:0:
64,192,74850,128,0,76350:0:0:0:0:
192,192,74850,1,0,0:0:0:0:
320,192,76350,1,0,0:0:0:0:
192,192,76350,1,0,0:0:0:0:
64,192,76875,1,0,0:0:0:0:
192,192,76875,1,0,0:0:0:0:
320,192,77250,1,0,0:0:0:0:
448,192,77250,1,0,0:0:0:0:
64,192,77750,128,0,78125:0:0:0:0:
192,192,78250,1,0,0:0:0:0:
320,192,78375,1,0,0:0:0:0:
448,192,78500,1,0,0:0:0:0:
64,192,79375,1,0,0:0:0:0:
448,192,79375,1,0,0:0:0:0:
192,192,79750,1,0,0:0:0:0:
320,192,79750,1,0,0:0:0:0:
320,192,80250,1,0,0:0:0:0:
448,192,80250,1,0,0:0:0:0:
192,192,80625,1,0,0:0:0:0:
64,192,80625,1,0,0:0:0:0:
320,192,81125,128,0,81875:0:0:0:0:
448,192,81125,128,0,81875:0:0:0:0:
192,192,82350,1,0,0:0:0:0:
64,192,82350,1,0,0:0:0:0:
320,192,82575,1,0,0:0:0:0:
64,192,82575,1,0,0:0:0:0:
320,192,82800,1,0,0:0:0:0:
448,192,82800,1,0,0:0:0:0:
448,192,83100,1,0,0:0:0:0:
64,192,83100,1,0,0:0:0:0:
64,192,83400,1,0,0:0:0:0:
320,192,83400,1,0,0:0:0:0:
64,192,83700,1,0,0:0:0:0:
320,192,83700,1,0,0:0:0:0:
64,192,84000,128,0,84975:0:0:0:0:
448,192,84000,1,0,0:0:0:0:
448,192,84975,1,0,0:0:0:0:
64,192,85725,1,0,0:0:0:0:
448,192,85725,1,0,0:0:0:0:
448,192,87000,128,0,88200:0:0:0:0:
64,192,87450,1,0,0:0:0:0:
192,192,87450,1,0,0:0:0:0:
64,192,87600,128,0,88200:0:0:0:0:
192,192,87600,128,0,88200:0:0:0:0:
